Cdi Redump

TOSEC and Dumpcast. Many people primarily believed that Bitcoin and other altcoins are nothing more than a scam. Compare Search ( Please select at least 2 keywords ) Most Searched Keywords. Although these roms are bad dumps and need redump, for now we fully meet the requirements for lr-mess to boot. So, basically anything made in the last 10 years or so. org gdi image has several difference compare to the general gdi format. Normalmente los juegos Redump suele indicarlo en el propio nombre del juego o en la web. [Anders Sandahl] -Added command strobe callback interface for LDV1000, and hooked it up to esh. org, philips cdi, philips cd-i, cdi, cd-i The Software Capsules Compilation 495 495. • 与Redump和Tosec图像兼容(适用于Dreamcast / Saturn) • 兼容CDI,GDI,CCD,MDF,bin / iso + cue图像 • 即插即用,无需焊接! • 2个用户界面:简单的列表视图和高级封面 • 支持多种光盘游戏 • 零查找时间提供更快的加载时间. The CDI network of locations provides the full range of services from regular screenings to pain care to diagnostic imaging and more. Use GDEMU SD CARD MAKER and drag the game folders into the software. cdi format is one of the formats that does support it. From Redump Wiki. Spider-Man chd(pal)cdi(ntsc) коды просьба модератора если сможете таблицу сделать из кодов, то сделайте, если не получится то не удаляйте ссылку Год выпуска:19 апреля 2001 г. FILE "Hotel Mario (Europe). https://1fichier. Scan websites for malware, exploits and other infections with quttera detection engine to check if the site is safe to browse. Removed NO_DUMP cdic. I forgot where I read it but for Rhea use Daemon Tools 4. FMV playback and audio have been smooth. 51 by hcf and madmab port of mess for xbox. Es sei ausdrücklich an dieser Stelle darauf hingewiesen, dass die für Musik-Sammler. 53 ID:JA/yZSeT0. When you convert those isos to eboots the iso is no longer a "good dump", all that precious work done is immediately destroyed. If there is a download link on this page and you expect a torrent to be "well seeded" its VERY unlikely you will have much success - Our revenue funded Seedboxes usually only host for 90 days (more in some "collection" cases). [couriersud]. CDI versions are crappy dumps generally though. 1*,cdi 理论上能转回 gdi/cue 带 bin ,但会很麻烦,而且数据结构也无法还原成原始 redump状态(虽然也可以用于转换就是了),每个游戏都得专门逆处理,不存在用现存的XX工具 “一键” 还原。. xml: Re- dumped. Community Emuparadise Forums Redump - Philips - CD-i (2017-08-15) There is a more recent Redump set - just two years newer - with MUCH better coverage, as in more than double the number of games. - The internal SPU plugin has been updated to the 1. Redump - disc images information. org database project, from the named regions. yuzu has been designed with portability in mind, with builds available for Windows, Linux, and macOS. Compare to the same track in the Redump database entry. It's either Redump, Trurip, or Darkwater dump. That's a file similiar but simpler than ". Также на: N64 PS GBC PC GEN GEN GG SMS. org GDI and General GDI share with the same file extention name ". Topics in this forum with details of replies, views, last post. Asterix - Le Defi de Cesar (France) CD-Online - Issue 01 - Internet on TV (Europe) Hot and Cold (Europe) (En,Fr) Hotel Mario (France) Master Labyrinth (Germany) (En,Fr,De,Nl) Ville Surprise de Richard Scarry 1, La (France) Ville Surprise de Richard Scarry 2, La (France) Von der Elbe an die Spree. Sega Saturn Redump Download. Roms Isos PSX, PS1, PS2, PSP, Arcade, NDS, 3DS, Wii, Gamecube, Snes, Mega drive, Nintendo 64, GBA, Dreamcast download via torrent. I will try to redump one soon. Para a checagem do código, devemos procurar o jogo no site Redump. SNK – Neo Geo CD. ì £ I©f E*×±ƒ [email protected]€ Lavf55. Or: Clone this repository, open it in Visual Stdio 2017 and just hit run - no dependencies except System. – Automatic content scanning – game titles/regions are provided by redump. x265-RARBG » video movie hd 22 days 1517 MB 8 1 Dreamcast CDI 7 years 38 GB 4 5 Resident Evil Remake (PC) » game pc 8 years 2017 MB 8 1 Стефани Перри - Заговор корпорации Umbrella (Resident Evil-1. Infogrames is known as the most prolific CD-i developer next to Philips, they brought CD-i games like Asterix: Caesar's Challenge, International Tennis Open, Kether, Shaolin's Road, Chaos Control, and ended in 1999 with the very last CD-i game: Solar Crusade. Normalmente los juegos Redump suele indicarlo en el propio nombre del juego o en la web. Re: ILLBLEED (Traditional Chinese Version) [NTSC-J] [T45601M 11]. nz Alundra 2 - A New Legend Begins (USA)(Redump) Lord Valarion replied to topic's CL-AudioGraphic in (PSX) NTSC-U Game Downloads Thank you for this great Ps1 game!. From Redump Wiki. I need to look into getting more storage, which is a shame considering I just bought a new hard drive for it a few months ago. Sep 04 2020, 23:47 [CDI] Mega Maze; Sep 04 2020, 23:44 Redump. So, basically anything made in the last 10 years or so. Note: Some GD-Roms will NOT dump with this method, and require a TOSEC-style SD Card dump for the HD area which then has to be "fixed" to meet redump spec. Here is all what he has done for years. 13: Original: 814 0076: The 7th Guest (Disc 1) (Le Jeu) CDI. FILE "Hotel Mario (Europe). Scan websites for malware, exploits and other infections with quttera detection engine to check if the site is safe to browse. Here you can download our collection of Dreamcast Games/ISOs/ROMs. See also: Sega Dreamcast Unlicensed Missing Discs Sources: Maddog's list Needs list updated from Dreamcast Junkyard guide, the most authoritative and accurate list. Compatible disc images are CDI, CCD+IMG+SUB, MDS+MDF, ISO (games with no audio tracks and homebrew). Nintendo parle de son projet: l’Ultra 64 ( qui sortira 2 ans plus tard sous le nom de Nintendo 64). And, from my research, the first self-booting scene release was in. But redump. 2719187 >>2719178 You know, I actually had a few hundred ps1 roms but actually could not to upload them because of hard drive space. An icon used to represent a menu that can be toggled by interacting with this icon. [ClawGrip, Kevin Eshbach, ArcadeHacker] - ninjakd2. Discs are in. The Hidden Palace is a community dedicated to the preservation of video game development media (such as prototypes, hardware, source code, artwork, and more). zip (or 3 rd party port); Wii which can run Homebrew; IOS36-64-v1042. Now you are trying to convert GDI's correct and not CDI'sas I know you where chatting with Frequency or someone else about CDI's. Disc Image Transfer. [SLUS-01347] (Redump) Dave Mirra. Также на: N64 PS GBC PC GEN GEN GG SMS. Ulivi] ibm5150:. Ich würde jedoch lieber meine Redump konformen Games im. 種別:Blu-ray 小西大樹 解説:大昔から人間を喰らい続けた魔獣“ホラー”から人々を護る“魔戒騎士”の若者の物語を描く、牙狼<GARO>ファーストTVシリーズ全26話を収録したBlu-ray BOX。. Redump - disc images information. Hash check for CloneCD files. bin file are your track03. [Angelo Salese] -raiden2cop. – Automatic content scanning – game titles/regions are provided by redump. 2019/12/25 A holiday miracle! Re-added CD-i, PCECD, Dreamcast, 3DO, NGCD ISOs. General CDI emulation suffers from incomplete simulation of the SLAVE and CDIC MCUs. Free online heuristic URL scanning and malware detection. That's a file similiar but simpler than ". Список игр: 007 - The World Is Not Enough 007 - Tomorrow Never Dies. iso CRC = 8582361B. So, basically anything made in the last 10 years or so. An icon used to represent a menu that can be toggled by interacting with this icon. Although these roms are bad dumps and need redump, for now we fully meet the requirements for lr-mess to boot. Copied SERVO and SLAVE MCUs into cdimono1 set from cdi910 set and marked with BAD_DUMP. bin as the CDIC is apparently not an MCU. How to use it? Either download a release here from Github and run the exe file. 0/OpenGL ES 3. Dreamcast Gdi Collection. cpp: Decapped and dumped an i8751 microcontroller for German-language Quizard 2 sets. I forgot where I read it but for Rhea use Daemon Tools 4. Olá pessoal! Hello World! Hoje iremos configurar o OCS Inventory, que é utilizado para coletar informações de hardware e software contidas em sistemas operacionais de computadores em uma rede. The king walks by himself and turns when he bumps into a wall, so you must move walls around to guide him to exit. Redump Forum — New Dumps (Europe). org GDI and General GDI share with the same file extention name “. MAME stands for Multiple Arcade Machine Emulator. cue” file widely used in CD-ROM image to identify track filenames and track location in a whole disc layout. However, the people who dump the discs are encouraged to share them elsewhere. [couriersud]. Free online heuristic URL scanning and malware detection. So, basically anything made in the last 10 years or so. Les jeux Reicast sont au format. cpp: fix building with gcc-10. Check Wine's AppDB for compatibility. 13: Original: 814 0076: The 7th Guest (Disc 1) (Le Jeu) CDI. Ulivi] ibm5150:. Compare to the same track in the Redump database entry. yuzu has been designed with portability in mind, with builds available for Windows, Linux, and macOS. When in doubt, use a Utopia Boot CD to launch games that seem unlaunchable (Region issues) or an Action Replay CDX (Not recommended). i have installed the dxwebsetup. BIN 32X_M_BIOS. May 24, 2019 05/19. O CD32 controlou fixar-se sobre 50% do mercado do CD-ROM no Reino Unido em 1993 e em 1994, ultrapassando o Sega CD, o Philips CDi, e mesmo as vendas do CD-ROM do PC. xml: Added CHD images of redump. SONIC3D Posts: 9 Joined: Mon Jun 20, 2016 1:03 pm. General CDI emulation suffers from incomplete simulation of the SLAVE and CDIC MCUs. Tried to match my. Replaced the GC set with NKit-scrubbed ISOs. cpp: Use ROM_LOAD_64_BYTE macro where appropriate - funworld. *unified rom naming and added a few sets that were missing. Back Home. Region Title System Version Edition Languages Serial Status; Battleship Battleship: Schiffeversenken mit der US Navy. Diese Liste wird, wie alle wiki-Artikel, frei veränderbar sein. - SDL-compatible game controller (e. Ich würde jedoch lieber meine Redump konformen Games im. 忘记密码? 自动登录. • Compatible with Redump and Tosec images (for both Dreamcast/Saturn) • Compatible with CDI, GDI, CCD, MDF, bin/iso+cue images • Plug and play, no soldering required! • 2 User interfaces: Simple list view and Advanced Cover Art • Supports multiple Disc games • Zero seek times providing faster load times. Browse ROMs / ISOs by download count and ratings. 100% Fast Downloads!. c +++ b/src/mame/drivers/cdi. com just sent me a Fenrir Optical Drive Emulator for the Sega Saturn and I was able to put it through it’s paces. BIN 32X_S_BIOS. 25" Floppy. cue” file widely used in CD-ROM image to identify track filenames and track location in a whole disc layout. Les jeux Reicast sont au format. View File Philips CD-i Gameplay Snaps Pack EmuMovies Official Gameplay Snaps Pack for the Philips CD-i Availability - Site, FTP & Sync Submitter RetroNi Submitted 08/28/2018 Category Artwork Resolution 640x480 Naming Convention ReDump / HyperBase File Count 143. Bonjour, Existe t'il une procédure pour soumettre des idées d'amélioration sur une prochaine mise à jour. Now finally we have a safe reliable place to download unaltered (Redump) original Dreamcast games! Kudos my friend! P. GDEMU使用本站的DC游戏redump镜像所需要的转换工具 DC 三级用户 110119diDI 1月前 1131 最近买了个DC硬盘机,了了以前的心愿,不过想玩本站的redump镜像的时候,GDEMU_SD软件总是报错,后来在一个论坛找到了工具 gdi-utils-gui-v1. Region Title System Version Edition Languages Serial Status; Battleship Battleship: Schiffeversenken mit der US Navy. Download section for Dreamcast ROMs / ISOs of Rom Hustler. org itself only stores metadata about the disc. 35 MB Used Memory: 3560. I give up… at least for today. 25" Floppy. ##### Sega - Dreamcast ##### Télécharger le pack d'utilitaires pour ISO's Dreamcast. xml: added a few recently dumped prototypes. Hi World of CDi team! This is my first post here. BIN 32X_M_BIOS. cue” file widely used in CD-ROM image to identify track filenames and track location in a whole disc layout. bin" BINARY TRACK 01 CDI/2352 INDEX 01 00:00:00 Write Offset: 0. Je vais me mettre rapidement au travail pour vous livrer les dernières versions de No-Intro et Redump. It includes fixes on interpolation (Square games) and other minnor fixes (Kururin Pa!). Browse ROMs / ISOs by download count and ratings. cue Format). chd name to the new cdi. See also: Sega Dreamcast Unlicensed Missing Discs Sources: Maddog's list Needs list updated from Dreamcast Junkyard guide, the most authoritative and accurate list. Replaced the GC set with NKit-scrubbed ISOs. Penn & Teller's Smoke and Mirrors is an unreleased video game starring the magician duo Penn & Teller that was planned for release initially on the Sega CD in April 1995. System and Game Logos for the Philips CD-i Availability - Site, FTP, Sync 106 downloads (0 reviews). You’ll compare the CRC-32 hash of this file against the value on Redump indicating TOTAL CRC-32 (Picture 8) Fig. cpp: Red- dumped the ROMs for jt104 and corrected labels. [Anders Sandahl] -Added command strobe callback interface for LDV1000, and hooked it up to esh. 0-win32-x64。. Some discs, both pressed and CDRs, had read errors unfortunately. The results we display for the keyword Redream will trade over the years as new keyword tendencies develop within the related key-word catoegory and marketplace. Hash check for CloneCD files. Redump - disc images information. Over on our Arcade Forums, user Gamesx2 shares with us a fantastic Magnet (torrent) link for a complete Dreamcast collection (over 500gb) – the torrent itself is laid out like below and you can go into the folders and select and deselect what you actually wish to download (you may not want both NTSC and PAL games for example, or you may just wish to download certain titles) – this is an. Over on our Arcade Forums, user Gamesx2 shares with us a fantastic Magnet (torrent) link for a complete Dreamcast collection (over 500gb) - the torrent itself is laid out like below and you can go into the folders and select and deselect what you actually wish to download (you may not want both NTSC and PAL games for example, or you may just wish to download certain titles) - this is an. Download section for Dreamcast ROMs / ISOs of Rom Hustler. This covers the Saturn Redump, and most of the the “everdrive pack” Saturn Redump Supplement sets. 【Genesis】メガドライブエミュレータ【MegaDrive】 2bit 1 :名無しさん@お腹いっぱい。 :2014/06/03(火) 13:41:29. cpp: Use ROM_LOAD_64_BYTE macro where appropriate - funworld. nz Alundra 2 - A New Legend Begins (USA)(Redump) Lord Valarion replied to topic's CL-AudioGraphic in (PSX) NTSC-U Game Downloads Thank you for this great Ps1 game!. exe i get the window with the nulldc logo ok. iso CRC = 09DA2E43 (v2. and September 29, 1995 in Europe. Filed under Debian Jessie, Linux, Nginx, PHP Tagged with Acessar SQL Server usando PHP 7, apache tomcat config on linux, apache tomcat no linux, Capturando variáveis de ambiente do Linux no Nginx, Como instalar a pilha Linux, Como instalar a pilha Linux Nginx MySQL PHP, Como Instalar o LEMP, Como instalar o Nginx, Como instalar o Nginx + PHP + MySql no Debian, Como Instalar o Nginx com PHP. net PCSX2公式サイト. So, basically anything made in the last 10 years or so. 0/OpenGL ES 3. M›[email protected]»‹S«„ I©fS¬ ßM»ŒS«„ T®kS¬‚ 0M» S«„ S»kS¬ƒ. Redump - Philips - CD-i (2017-08-15) Addeddate 2017-10-20 07:31:25 Identifier redumpPhilipsCdi Identifier-ark ark:/13960/t68403z22 Scanner Internet Archive HTML5 Uploader 1. Home Mise à jour Philips - CD-i. Для Дримкаст надо Padus Discjuggler, который в формат. 563 MB SystemType: 64-bit Physical. 1 point · 1 year ago. sbi disponibles sur le site Redump. Prepare games. Eߣ B† B÷ Bò Bó B‚„webmB‡ B… S€g. Redump Disc-based systems IRD Library PS3 Games Verifying Multi-Track Discs on Windows (PS1/Saturn/DC) Note: IsoBuster is only available for Windows and may not work on other platforms. 这个工具是将redump的gdi + 多bin 格式的dc游戏转换成普通的gdi格式 非常好用的软件!有没有nrg格式转成gdi或者cdi的. yuzu is an open-source project, licensed under the GPLv2 (or any later version). [Fabio Priuli] - intelfsh, i2cmem: Not a device_memory_interface either [O. xml: added info about original disks. Many of the ISO's (not these GDI's) were altered to be burned onto a single CD-R (in BIN or CDI format) because GDI's are too large to fit onto a CD-R. See what's new with book lending at the Internet Archive. I also tried mounting the cue/bin file and and creating a. Over on our Arcade Forums, user Gamesx2 shares with us a fantastic Magnet (torrent) link for a complete Dreamcast collection (over 500gb) – the torrent itself is laid out like below and you can go into the folders and select and deselect what you actually wish to download (you may not want both NTSC and PAL games for example, or you may just wish to download certain titles) – this is an. 175 is released. FILE "Hotel Mario (Europe). org GDI and General GDI share with the same file extention name ". But redump. Cdi redump Cdi redump. I could just be burning incorrectly. That's because they changed something internally in Daemon Tools with the newer versions. Ich würde jedoch lieber meine Redump konformen Games im. just compare the site's hashes with the hashes produced by the use of programs like HasyMyFiles. Also, curious about something, if the chd was created from a redump. В каждой папке с игрой лежит обложка. 各種cd イメージを、iso イメージファイル に変換してくれるソフト。 bin / img / ima / cdi / mdf / nrg / b5i / b6i / pdi / gbi / daa / uif / dmg / iso / isz / deb / rpm 形式の cd イメージを、簡単な操作で iso イメージファイルに変換することができます。. Dreamshell cdi is not working #814 · opened Aug 06, 2019 by bigboo. Asterix - Le Defi de Cesar (France) CD-Online - Issue 01 - Internet on TV (Europe) Hot and Cold (Europe) (En,Fr) Hotel Mario (France) Master Labyrinth (Germany) (En,Fr,De,Nl) Ville Surprise de Richard Scarry 1, La (France) Ville Surprise de Richard Scarry 2, La (France) Von der Elbe an die Spree. Most people will never have much of a reason to bother with this since virtually all of the popular games, especially for the NTSC-U region, are already available in. At the same time I can upload the downloaded rom to Lakka and test it on the emulator itself. 0/OpenGL ES 3. Some games run very slow. eye 495 favorite 1 comment 0. org gdi image has several difference compare to the general gdi format. org Configuration requise: – A CPU faster than a potato. nz Parasite Eve (USA)(Redump) Lord Valarion replied to topic's agentcooper93 in (PSX) NTSC-U Game Downloads. An icon used to represent a menu that can be toggled by interacting with this icon. Thanks Thank you very much for reading my bad english (I'm french), I really hope SNEStoCDi will help you to use your CDi without spending insane money on an original CDi. Chop them off with a hex editor or something like that. exe i get the window with the nulldc logo ok. Jump to: navigation, search. Personally never had much use for BIN or CDI except to save on disc space. Asterix - Le Defi de Cesar (France). Verified REDUMP. chd name to the new cdi. - Automatic content scanning - game titles/regions are provided by redump. So it should be quality. The newly created CDI mounted just fine and I was able to double-check it based on CDI from the torrent I downloaded. I've tested the CDI and it's booting and working fine. 7z NCAA College Football 2K2 - Road to the. Ulivi] ibm5150:. (I tried both original cue and chd made from it). Redump - disc images information. Emulator starts just fine, without any errors, but doesn't load the disc, instead sending me to the console's CD player. Although these roms are bad dumps and need redump, for now we fully meet the requirements for lr-mess to boot. Converted nearly all CD sets to CHD format. Скачать образ игры Dave Mirra Freestyle BMX для Sega Dreamcast в формате cdi. org] Sega Saturn (469 of 496) (2009-05-18) 8 years 165 GB 1 9 Resident. Region Title System Version Edition Languages Serial Status; Battleship Battleship: Schiffeversenken mit der US Navy. Los juegos que no funcionan con GDemu tienen una estructura distinta, con más de tres archivos. So, basically anything made in the last 10 years or so. cdi files in. [Caps0ff, TeamEurope] - Added MicroTouch touch screen controller ROM dumps (not hooked up). > 29-May-2019 20:35 532M 102 Dalmatians - Puppies to the Rescue v1. Je m'explique : étant un utilisateur lambda donc ni codeur, ni informaticien mais simplement joueur, je trouve qu'il manque certaines choses qui pourraient faciliter la vie de beaucoup car ce qui coule de source pour vous, ne l'est pas forcément pour d'autres. The results we display for the keyword Redream will trade over the years as new keyword tendencies develop within the related key-word catoegory and marketplace. -gaiden: combine shadoww D sprite roms verified with redump, apply the same to Japanese set [Victor Fernandez (City Game)] -nl_palestra. Posts sobre php configure oracle escritos por Mastigado. 7z NCAA College Football 2K2 - Road to the. So, basically anything made in the last 10 years or so. – Automatic content scanning – game titles/regions are provided by redump. That's because they changed something internally in Daemon Tools with the newer versions. The Software Capsules Compilation. Redump BIN/CUE support. cdi or something. El parcheador de PacoChan permite parchear o los dos GDIs de una sentada o un disco concreto. This covers the Saturn Redump, and most of the the “everdrive pack” Saturn Redump Supplement sets. 0/OpenGL ES 3. • Compatible with Redump and Tosec images (for both Dreamcast/Saturn) • Compatible with CDI, GDI, CCD, MDF, bin/iso+cue images • Plug and play, no soldering required! • 2 User interfaces: Simple list view and Advanced Cover Art • Supports multiple Disc games • Zero seek times providing faster load times. 13: Original: 814 0076: The 7th Guest (Disc 1) (Le Jeu) CDI. 0 and above. • Compatible with Redump and Tosec images (for both Dreamcast/Saturn) • Compatible with CDI, GDI, CCD, MDF, bin/iso+cue images • Plug and play, no soldering required!. 7) HASH the following settings will not work if low quality roms are used. All of them have been renamed and include the internal CRC named in the title (mind that most of them were written manually, so some of them could have. bin) in the DC folder inside System and my graphics card has the ability to render openGL 3. ODEs (GDEMU/USB GD-ROM) and new Redump exclusive CUE/BIN game images I would like to ask for any help with converting or otherwise enabling cue/bin Redump dumps to work on GDEMU. If you need to apply any patch, do it in the unpacked. Forms and mscorlib. Except in Redump's case, we're switching from bin+gdi to bin+cue. Bin gerade dabei mich durch die CD-i Emulation zu arbeiten. *Added proper descriptions to most sets. chd name to the new cdi. By dougan78. – Automatic content scanning – game titles/regions are provided by redump. No busques formas de convertir imágenes en. The CDi CHDs can also be used with the commercial CDi Emulator. 0 and above. magworma - Service mode works, game does not. Playstation. 各種 イメージファイル を、展開 / 変換 / 作成 / ライティング することができるソフト。 iso / bin / nrg / cdi / mdf / img / gi / pdi / dmg / b5i / b6i といったイメージファイルを、iso / bin 形式のイメージファイルに変換したり、イメージ内から任意のファイルを抽出したりすることができます。. - SDL-compatible game controller (e. The Eye is a website dedicated towards archiving and serving publicly available information. cpp: Added PCB ASCII layout - guab. • Compatible with Redump and Tosec images (for both Dreamcast/Saturn) • Compatible with CDI, GDI, CCD, MDF, bin/iso+cue images • Plug and play, no soldering required!. Repeat for all tracks. #opendirectory #archive #digitalhistory. ===== Finally an easy release. txt) or read book online for free. cpp: Red- dumped the ROMs for jt104 and corrected labels. Bonjour, Existe t'il une procédure pour soumettre des idées d'amélioration sur une prochaine mise à jour. Here is all what he has done for years. "Non Redump PlayStation 2 Asia & Japan" is a compilation containing hundreds of games that we still couldn't dump and preserve properly for Redump. J’espère avoir fini début de semaine prochaine. Normalmente los juegos Redump suele indicarlo en el propio nombre del juego o en la web. ^ owned by Maddog, but due to his location / schedule, it may be a while before they are dumped. 53 ID:JA/yZSeT0. I'll update…. [coolmod, The Dumping Union]-snes. There is no way it can be read on time on a CD, so they had to be downsampled to play right. At the same time I can upload the downloaded rom to Lakka and test it on the emulator itself. Для Дримкаст надо Padus Discjuggler, который в формат. Asterix - Le Defi de Cesar (France) CD-Online - Issue 01 - Internet on TV (Europe) Hot and Cold (Europe) (En,Fr) Hotel Mario (France) Master Labyrinth (Germany) (En,Fr,De,Nl) Ville Surprise de Richard Scarry 1, La (France) Ville Surprise de Richard Scarry 2, La (France) Von der Elbe an die Spree. Copied SERVO and SLAVE MCUs into cdimono1 set from cdi910 set and marked with BAD_DUMP. BIN 32X_M_BIOS. Cartridge-based (Up to 4th Gen) [] Games on Nintendo's NES, SNES, GB and N64, Sega's Master System and Mega Drive (aka Genesis), NEC's PC-Engine (aka TG-16), and other systems from the same era were stored on special cartridges to be read with a very particular pin layout only found on their intended hardware. eye 495 favorite 1 comment 0. Redream pedirá más q reicast pero no variará mucho. txt b/whatsnew/whatsnew_0224. cpp: Use ROM_LOAD_64_BYTE macro where appropriate - funworld. The most recent topics at Redump Forum. 1) trying to load a NEO. This is a list of all games for the Dreamcast video game console. xml: Re-dumped Mr Tuff. (I tried both original cue and chd made from it). Normalmente los juegos Redump suele indicarlo en el propio nombre del juego o en la web. The game was released worldwide on December 20, 2010. org itself only stores metadata about the disc. An icon used to represent a menu that can be toggled by interacting with this icon. The domain redump. Region Title System Version Edition Languages Serial Status; 102 Dalmatians: Puppies to the Rescue. Размер 400x400. #opendirectory #archive #digitalhistory. J'ai récupéré l'ensemble des. 7z NCAA College Football 2K2 - Road to the. Spider-Man chd(pal)cdi(ntsc) коды просьба модератора если сможете таблицу сделать из кодов, то сделайте, если не получится то не удаляйте ссылку Год выпуска :19 апреля 2001 г. I tried no intro, redump, tosec, the archive, and the eye and found most but no collections were complete. Compare Search ( Please select at least 2 keywords ) Most Searched Keywords. At the same time I can upload the downloaded rom to Lakka and test it on the emulator itself. 13: Original: 814 0076: The 7th Guest (Disc 1) (Le Jeu) CDI. 563 MB SystemType: 64-bit Physical. Personally never had much use for BIN or CDI except to save on disc space. Asterix - Le Defi de Cesar (France) CD-Online - Issue 01 - Internet on TV (Europe) Hot and Cold (Europe) (En,Fr) Hotel Mario (France) Master Labyrinth (Germany) (En,Fr,De,Nl) Ville Surprise de Richard Scarry 1, La (France) Ville Surprise de Richard Scarry 2, La (France) Von der Elbe an die Spree. See what's new with book lending at the Internet Archive. И каждая обработана фотошопом. org GDI-Files and extract the. xml: Added many games. Dreamshell cdi is not working #814 · opened Aug 06, 2019 by bigboo. Can be used as data carrier though for homebrew apps. bin Genesis_OS_ROM. Jump to: navigation, search. October 17th, 2017. magworma - Service mode works, game does not. Although it was a much higher powered machine than Sony's Playstation or Sega's Saturn, the N64 always lagged behind in sales. > 29-May-2019 20:35. cpp: Added PCB ASCII layout - guab. 91 MB Free Memory: 12710. - For the hardware renderers, a GPU capable of OpenGL 3. 1 on mingw32. While it had little impact on the ailing TurboGrafx-16 in North America, this add-on boosted PC Engine sales in Japan. Many people primarily believed that Bitcoin and other altcoins are nothing more than a scam. KUSEG KSEG0 KSEG1 00000000h 80000000h A0000000h 2048K Main RAM (first 64K reserved for BIOS) 1F000000h 9F000000h BF000000h 8192K Expansion Region 1 (ROM/RAM) 1F800000h 9F800000h -- 1K Scratchpad (D-Cache used as Fast RAM) 1F801000h 9F801000h BF801000h 8K I/O Ports 1F802000h 9F802000h BF802000h 8K Expansion Region 2 (I/O Ports) 1FA00000h 9FA00000h BFA00000h 2048K Expansion Region 3 (whatever. Searching for Redump and TOSEC archives will serve you well. 1 L20, Z's Triphony DigitalCraft Towns [redump. Some games run very slow. eye 495 favorite 1 comment 0. Read this detailed review on Binance, compare 500+ other crypto exchanges in our Exchange List, or use our Exchange Filters to find the right exchange for you. Black Rain (Germany) (Disc 1) Black Rain (Germany) (Disc 2) Hunt for Red October, The (USA) (Disc 1) Hunt for Red October, The (USA) (Disc 2) Top Gun (Germany) (Disc 1) Top Gun (Germany) (Disc 2). 0/Direct3D 11 Feature Level 10. Soul Blade (Bleemed) Up first and will be ready before bed was one I have always been curious of and can be beaten without a MC in one sitting, Soul Blade for PSX. Repeat for all tracks. 1 Please add support for Redump. From Redump Wiki. xml and did also put my sha1sum in there. Although these roms are bad dumps and need redump, for now we fully meet the requirements for lr-mess to boot. Region Title System Version Edition Languages Serial Status; Battleship Battleship: Schiffeversenken mit der US Navy. Discs are in. Hash check for CloneCD files. プレステ2エミュについて語ろう【PCSX2】vol117 1 :名無しさん@お腹いっぱい。 :2017/12/02(土) 09:02:43. Indeed CDI files are Padus DiscJuggler images which is a Windows-program only. CD-ROMs can have multiple tracks by design, and the standard says it can be any type, like audio, or data. Cdi redump. - For the hardware renderers, a GPU capable of OpenGL 3. Trurip - vzke. It was very kind and thoughtful of your team <3 Mil-CDs and Unlicensed games (Multisessional CD-Roms) being a different format, are. You'll compare the CRC-32 hash of this file against the value on Redump indicating TOTAL CRC-32 (Picture 8) Fig. Requis : - Dreamcast Région "Europe" > Swirl Bleu pour la meilleure compatibilité ! Ensuite que cela soit PAL/NTSC (Broadcast) cela ne change rien. gdemu says: 2020/04/19 at 23:30. it is important to check the quality of dump/rip through the redump site. That's a file similiar but simpler than ". -gaiden: combine shadoww D sprite roms verified with redump, apply the same to Japanese set [Victor Fernandez (City Game)] -nl_palestra. Provided by Alexa ranking, redump. Sega Saturn Redump Download. Dreamshell cdi is not working #814 · opened Aug 06, 2019 by bigboo. The SEGA Dreamcast, first released on 1998 in Japan, is to this day the latest SEGA console and a beloved system by many gamers. Using imgburn and the cdi addon. • Compatible with Redump and Tosec images (for both Dreamcast/Saturn) • Compatible with CDI, GDI, CCD, MDF, bin/iso+cue images • Plug and play, no soldering required! • 2 User interfaces: Simple list view and Advanced Cover Art • Supports multiple Disc games • Zero seek times providing faster load times. All of them have been renamed and include the internal CRC named in the title (mind that most of them were written manually, so some of them could have. Es sei ausdrücklich an dieser Stelle darauf hingewiesen, dass die für Musik-Sammler. Requis : - Dreamcast Région "Europe" > Swirl Bleu pour la meilleure compatibilité ! Ensuite que cela soit PAL/NTSC (Broadcast) cela ne change rien. 0/OpenGL ES 3. Redump - disc images information. It would be nice if chdman understand it. org, philips cdi, philips cd-i, cdi, cd-i The Software Capsules Compilation 495 495. A couple of these are English versions of Japan-only games which existence was unconfirmed until now, while the third one is a completely cancelled flight combat sim (Update: “Iron Eagle Max” was released as “Side Winder Max” in Japan, thanks to Ozzy2k for the info!):. Except in Redump's case, we're switching from bin+gdi to bin+cue. But redump. Soul Reaver and Toy Commander are known to be affected. Actually CDI is dirty and its only propurse is to run backups on real hw, clean redump format (GDI since redump moved to CUE format) or converted CHD is always recommended for flycast. org, philips cdi, philips cd-i, cdi, cd-i The Software Capsules Compilation 495 495. cdi torrent a little while ago. The N64 was released in mid-1996 as Nintendo's front-runner in the original next-gen console wars. Sep 04 2020, 23:47 [CDI] Mega Maze; Sep 04 2020, 23:44 [CDI] Monty Python's Invasion from the Planet Skyron; Sep 04 2020, 23:20 [CDI] Flashback; Sep 04 2020, 21:43 [XBOX] Otogi; Sep 04 2020, 19:54 [MCD] Pier Solar and the Great Architects: The Definitive Original Soundtrack (Disc 4) (Enhanced Soundtrack Disc) Sep 04 2020, 19:34 [PC] Ys Complete. Es sei ausdrücklich an dieser Stelle darauf hingewiesen, dass die für Musik-Sammler. A list of missing Sega Dreamcast Japanese games. DC少年街霸3 CDI格式日版(80min+99min) DC. Posts sobre php configure oracle escritos por Mastigado. 27 juin 2020 27 juin 2020 Mise à jour / Redump. I do not know what I’m doing wrong. That is in addition to its IMG/CCD and BIN/ISO support. I've looked into Rawdump's standards, and don't think their standards are worth adopting in favor of abandoning Redump. OBS: os jogos traduzidos para português tem uma bandeira do Brasil na capa. If you don't have chdman, it can be found in the regular MAME pack. List based on the work of The New International CD-i Association. https://1fichier. October 17th, 2017. So, basically anything made in the last 10 years or so. Can be used as data carrier though for homebrew apps. 1) trying to load a NEO. org UNLICENSED / MIL-CD (Multisessional CD-Rom) bin/cue. Redump - disc images information. Check Wine's AppDB for compatibility. MAME is a source-available project which documents the hardware for a wide variety of (mostly vintage) arcade machines, computers, video game consoles, and calculators through software emulation. Read this detailed review on Binance, compare 500+ other crypto exchanges in our Exchange List, or use our Exchange Filters to find the right exchange for you. xml: added a few recently dumped prototypes. 永久之绊紀像见过gdi,忘记在哪了. Re: Guide: Extracting And Recompiling CDI Images Post #120 » Thu Nov 01, 2018 8:29 am The retail game comes on a GD-ROM, which has a higher capacity than a CD-R. xml: completed addition of known dumps. Topics in this forum with details of replies, views, last post. @SingingCoyote13 said in Is it possible to read Dreamcast/Ps2/Gamecube discs into an emulator directly via the DVD drive on Retropie/PC or need they all be dumped to a. I would recommend using the games from Redump set since their filenames contain the game name so you can put them all in the same folder and also they are usable with Reicast out of the box without conversion. You play as a golem and must guide a king in a castle to safety. (no satisfieable result) Keeps saying driver not found in cdi. SNK – Neo Geo CD. 1*,cdi 理论上能转回 gdi/cue 带 bin ,但会很麻烦,而且数据结构也无法还原成原始 redump状态(虽然也可以用于转换就是了),每个游戏都得专门逆处理,不存在用现存的XX工具 “一键” 还原。. The Redump Dat files (GameCube and Wii) hold the checksums of all the good images. ODEs (GDEMU/USB GD-ROM) and new Redump exclusive CUE/BIN game images I would like to ask for any help with converting or otherwise enabling cue/bin Redump dumps to work on GDEMU. Scan websites for malware, exploits and other infections with quttera detection engine to check if the site is safe to browse. Here you can download our collection of Dreamcast Games/ISOs/ROMs. Tried to match my. 2019/12/25 A holiday miracle! Re-added CD-i, PCECD, Dreamcast, 3DO, NGCD ISOs. Before posting here please check the other forums in the Dreamcast section to see if your topic would fit better in those categories. However, I do share your concerns. The DirectX plugins fail to load. Furthermore with a current release of MAME you can place the CDI. Trurip - vzke. 求个cdi格式美版剑风传奇 一级用户 fightboylie 3月前 696 DC剑风传奇美版碟,放了快20年,前天发现不读盘了,PC光驱也没办法提取镜像。. The king walks by himself and turns when he bumps into a wall, so you must move walls around to guide him to exit. The Eye is a website dedicated towards archiving and serving publicly available information. 27 juin 2020 27 juin 2020 Mise à jour / Redump. Repeat for all tracks. Space Museum, TownsSOUND V1. I will try to redump one soon. The first one is the Philips CDI/PC 2. В каждой папке с игрой лежит обложка. cdi file, not in the. I found utilites like bin2boot and bin2boot gui which are supposed to convert the cue/bin's to. cue Format). org uses a Commercial suffix and it's server(s) are located in N/A with the IP number 62. de zusammengestellte Auflistung durch Kombination von Informationen aus verschiedenen, meist unvollständigen, IFPI-Code-Listen entstanden ist, die im Internet frei verfügbar sind. #opendirectory #archive #digitalhistory. MUCH faster than with BIN+CUE. - Automatic content scanning - game titles/regions are provided by redump. OBS: os jogos traduzidos para português tem uma bandeira do Brasil na capa. This should work fine with GDI's provided by ether Tosec or Redumpcourse your own matching GDI dumps will work as well. Es sei ausdrücklich an dieser Stelle darauf hingewiesen, dass die für Musik-Sammler. > 29-May-2019 20:35 662M 102 Dalmatians - Puppies to the Rescue v1. Para a checagem do código, devemos procurar o jogo no site Redump. No exemplo da imagem anterior eu usei o Jogo 007: Quantum of Solace (SLUS_218. i have installed the dxwebsetup. cdi format is one of the formats that does support it. com just sent me a Fenrir Optical Drive Emulator for the Sega Saturn and I was able to put it through it’s paces. Actually CDI is dirty and its only propurse is to run backups on real hw, clean redump format (GDI since redump moved to CUE format) or converted CHD is always recommended for flycast. - I've remade the Playstation image in CDI because DiscJuggler was refusing to burn the original CUE/BIN of the project. bin / dc_flash. I have converted the USA Redump image of UMK3 to CDI format; it works fine on my Phoebe and has 96 audio tracks, which is the correct number. И каждая обработана фотошопом. https://mastigado. See also: Sega Dreamcast Unlicensed Missing Discs Sources: Maddog's list Needs list updated from Dreamcast Junkyard guide, the most authoritative and accurate list. Soul Blade (Bleemed) Up first and will be ready before bed was one I have always been curious of and can be beaten without a MC in one sitting, Soul Blade for PSX. From Redump Wiki. I've tested the CDI and it's booting and working fine. 求个cdi格式美版剑风传奇 一级用户 fightboylie 3月前 696 DC剑风传奇美版碟,放了快20年,前天发现不读盘了,PC光驱也没办法提取镜像。. bin us_scd1_9210. 12 MIA favorite favorite favorite favorite favorite ( 2 reviews ) Topics: redump, redump. (I tried both original cue and chd made from it). Setting up my Dreamcast, cdi works fine, however I have a number that are bin/cue. 0/OpenGL ES 3. > > > > > > > > > > > > > > > > > > > > > > > > > > > > > > > > > > > > > > > > > > > > > > > > > > > > > > > > > > > > > > > > > > > > > > > > > > > > > > > > > > > > > > > > > >. Tried to match my. Emulator starts just fine, without any errors, but doesn't load the disc, instead sending me to the console's CD player. Los de tosec y trurip al parecer funcionan. A list of missing Sega Dreamcast Japanese games. 1 on mingw32. xml and did also put my sha1sum in there. Redump GDI images are what you want. redump, philips, cdi, cd-i Language English. Philips Lab-CDI : Anaya Touring : 1995 : 8160041 : Caricature, Create Your Own : Philips Media : Philips Freeland Studios : 1992 : 8140049 : Charting A New World. See also: Sega Dreamcast Unlicensed Missing Discs Sources: Maddog's list Needs list updated from Dreamcast Junkyard guide, the most authoritative and accurate list. Most people will never have much of a reason to bother with this since virtually all of the popular games, especially for the NTSC-U region, are already available in. txt b/whatsnew/whatsnew_0224. Galibert] - aristmk5. [Fabio Priuli] - intelfsh, i2cmem: Not a device_memory_interface either [O. Community Uploaded Links & Downloads » BIOS Files » Sega Dreamcast Chankast Recommended Bios set. Also, curious about something, if the chd was created from a redump. Также на: N64 PS GBC PC GEN GEN GG SMS. Scan websites for malware, exploits and other infections with quttera detection engine to check if the site is safe to browse. Je m'explique : étant un utilisateur lambda donc ni codeur, ni informaticien mais simplement joueur, je trouve qu'il manque certaines choses qui pourraient faciliter la vie de beaucoup car ce qui coule de source pour vous, ne l'est pas forcément pour d'autres. [Angelo Salese] -raiden2cop. It would be nice if chdman understand it. You can often fix it by selecting “Options” > “Default Game Options” > “Advanced” and ensuring that “Switch resolutions to fit” is unchecked. That’s a file similiar but simpler than “. Posts sobre php configure oracle escritos por Mastigado. cpp: Red-dumped the ROMs for jt104 and corrected labels. org USA disc set. Redump Disc-based systems IRD Library PS3 Games Verifying Multi-Track Discs on Windows (PS1/Saturn/DC) Note: IsoBuster is only available for Windows and may not work on other platforms. See GD-Rom SD Card Dumping Guide. bin" BINARY TRACK 01 CDI/2352 INDEX 01 00:00:00 Write Offset: 0. This also includes CD images in CDI format for homebrew, and ISO as well though obviously that's not self-bootable. Use GDEMU SD CARD MAKER and drag the game folders into the software. Some discs, both pressed and CDRs, had read errors unfortunately. Indentation white space in ". It would later be released in North America as the TurboGrafx-CD in 1989. yuzu is an open-source project, licensed under the GPLv2 (or any later version). Emulator starts just fine, without any errors, but doesn't load the disc, instead sending me to the console's CD player. Region Title System Version Edition Languages Serial Status; Battleship Battleship: Schiffeversenken mit der US Navy. Este post serve para quem constrói um projeto no Android Studio e depois de uma ou duas semanas (ou até mesmo alguns dias) quando tenta abrí-lo novamente são apresentadas inúmeras inconsistências de bibliotecas impedindo o funcionamento do aplicativo que foi escrito ou até mesmo a. 2020-04-17T02:47:28Z Dizzzy Dubs Please add support for Redump. This a small C# Program to convert Dreamcast Redump Images (bin/cue) and converts them to GDI Images (bin/raw/gdi). Je vais me mettre rapidement au travail pour vous livrer les dernières versions de No-Intro et Redump. O CD32 controlou fixar-se sobre 50% do mercado do CD-ROM no Reino Unido em 1993 e em 1994, ultrapassando o Sega CD, o Philips CDi, e mesmo as vendas do CD-ROM do PC. plus-circle Add Review. 1 y q la ROM de. NEC – PC Engine CD & TurboGrafx CD. bin as the CDIC is apparently not an MCU. bin Genesis_OS_ROM. Gdi disk ve okuyucu olmadığından piyasada (dump toplayan koleksiyonerleri ayrı tutuyorum, onlar belirtiyor) herkes Cdi yüklüyor. Indeed CDI files are Padus DiscJuggler images which is a Windows-program only. If there is a download link on this page and you expect a torrent to be "well seeded" its VERY unlikely you will have much success - Our revenue funded Seedboxes usually only host for 90 days (more in some "collection" cases). But redump. org GDI and General GDI share with the same file extention name ". Native Launcher for MS-DOS LaunchBox for MS-DOS 2. Sega saturn redump. Cover scans are provided by redream. [coolmod, The Dumping Union]-snes. The N64 was released in mid-1996 as Nintendo's front-runner in the original next-gen console wars. Philips - CD-i - Datfile (237) (2020-06-23 23-40-53) Manquant(s) : 16. Furthermore with a current release of MAME you can place the CDI. – Automatic content scanning – game titles/regions are provided by redump. Redump it from your Dreamcast. I tried no intro, redump, tosec, the archive, and the eye and found most but no collections were complete. Redump chd. org Project" on "underground-gamer. Converted nearly all CD sets to CHD format. 6 posts publicados por Mastigado durante May 2019. cdi file, not in the. bin" BINARY TRACK 01 CDI/2352 INDEX 01 00:00:00 That's naming convention from redump. FILE "Hotel Mario (Europe). [Angelo Salese] -raiden2cop. There is no way it can be read on time on a CD, so they had to be downsampled to play right. List is incomplete. org USA disc set. Galibert] -cdi. cue" file widely used in CD-ROM image to identify track filenames and track location in a whole disc layout. You’ll need: Retroarch 1. See also: MIA Lists DAT Version: Philips - CD-i - Datfile (238) (2020-08-21 14-47-04) MIA: 8/238. That’s a file similiar but simpler than “. Redump is the group making sure every psx game is correctly dumped, we make an effort to get their verified versions because they have no errors. cdi files in. The Crypto industry is one of the newest we have in today’s world. You’ll compare the CRC-32 hash of this file against the value on Redump indicating TOTAL CRC-32 (Picture 8) Fig. ^ owned by Maddog, but due to his location / schedule, it may be a while before they are dumped. Redump - Philips - CD-i (2017-08-15) Addeddate 2017-10-20 07:31:25 Identifier redumpPhilipsCdi Identifier-ark ark:/13960/t68403z22 Scanner Internet Archive HTML5 Uploader 1. cpp: fix building with gcc-10. [ClawGrip, Kevin Eshbach, ArcadeHacker] - ninjakd2. Скачать образ игры Dave Mirra Freestyle BMX для Sega Dreamcast в формате cdi. com) 13:17:04:444 | RL | INFO | +406 | Main - System Specs: RocketLauncher Dir: H:\Program Files\Hyperspin\RocketLauncher RocketLauncher is: 32-bit OS: Microsoft Windows 7 Home Premium SKU: Home Premium Total Memory: 16270. That's a file similiar but simpler than ". yuzu has been designed with portability in mind, with builds available for Windows, Linux, and macOS. I'm using the NTSC version. The DirectX plugins fail to load. PS1 Strengths and Weaknesses vs N64 and Sega Saturn (Journal feature at www. General CDI emulation suffers from incomplete simulation of the SLAVE and CDIC MCUs. cdi or something. Here you can download our collection of Dreamcast Games/ISOs/ROMs.